? Editing: Post:21.body Save Delete Cancel

Newest torrents

Follow in NewsfeedFollowing

Movies    |    TV Episodes    |    Music    |    Applications    |    Games

+ Add Torrent
Loading...

Title

Description
^1 ^2 added ━ submitted by user_name

Cabal desktop 2.0.0 win p2p chat

Cabal desktop 2.0.0 win p2p chat.
^1 ^2 0 comments 2 days ago ━ submitted by autocad

Counter-Strike Source

Counter-Strike Source
^3 ^4 1 comment last on May 21, 2019 ━ submitted by zsaw

Cabal desktop 1.0.8 alpha win p2p chat

Cabal desktop 1.0.8 alpha win p2p chat.
^1 ^2 0 comments on May 20, 2019 ━ submitted by autocad

Rammstein - Rammstein (2019) [FLAC|WEB-DL|tracks]

^1 ^2 1 comment last on May 16, 2019 ━ submitted by darkhon1

A.Better.Life.HD.1080p.2019.unholyghost

A Better Life: An Exploration of Joy & Meaning in a World Without God File Size: 2.6 GB Format: HD 1080p MP4 A must see documentary!
https://theatheistbook.com
^3 ^4 1 comment last on May 15, 2019 ━ submitted by unholyghost

Tixati 2.61 portable win64 (p2p file sharing, chat, forum, streaming).

Tixati 2.61 portable win64 (p2p file sharing, chat, forum, streaming).
^1 ^2 0 comments on May 15, 2019 ━ submitted by autocad

Dr.Dre Discography

Dr.Dre Discography @320 (11 Albums)(RAP)(by dragan09)
^1 ^2 0 comments on May 14, 2019 ━ submitted by benderrodriguez

O Definitivo Bau de Desenhos Parte 1

A Familia Urso - Completo A Formiga Atomica - Completo A Formiga e o Tamandua - Completo A Lula Lele - Completo A Pantera Cor-de-rosa - DVDRip Completo A Pequena Sereia - Completo A Turma do Manda-Chuva - Primeira Temp Aeon Flux - Completo 1.85 GB Animaniacs - Completo 1.76 GB Aquamen - Completo 1.35 GB Arquivo Caofidencial - Completo 1.27 GB As Aventuras de Tintin la a 3a Temporadas 6.58 GB As Aventuras deiackie Chan - Completo 22.8 GB Astro Boy - Completo 9.30 GB Avatar - Livro 1-2-3 Completo 10.7 GB Bicudo O Lobisomem - Completo 1.68 GB Bob Filho e Bibo Pai - Completo 1.66 GB Cadillacs e Dinossauros - Completo 2.44 GB Carangos e Motocas - Completo 698 MB Cavalo de Fogo - Completo 2.58 GB Caverna do Dragao - Completo DVDRip 5.44 GB Chowder - Completo 3.82 GB Coelho Ricochete e Blau Blau - Completo 1.34 GB Corrida Maluca - Completo 1.90 GB De Volta Para o Futuro - Completo 2.41 GB Deby e Loid - Completo 2.77 GB Dick Vigarista e Muttley - Completo 3.25 GB Dino Boy e o Vale Perdido - Completo 1.16 GB Dom Pixote - Completo 2.20 GB Du Dudu e Edu - Completo 5.61 GB Ducktales - Completo 15.7 GB Edgar e Ellen - Completo 4.46 GB Esquilo Sem Grilo - Completo 1.06 GB Falcao Azul e Bionicao - Completo Feiticeira Faceira - Completo Flash Gordon - Completo Frango Kung Fu - Completo Galaxy Rangers - Completo Galaxy Trio - Completo Gargoyles - Completo Gasparzinho e Amigos - Completo Gato Feliz - Completo Guerreiros Miticos - Completo Herculoids - Completo Homem de Ferro - 1966 - Completo Homem Passaro - Completo Homem-Aranha - 2003 - Completo Homem-Aranha e Seus incriveis Amigos Hong kong Fu - Completo Hulk - Completo ickory Dickory e Doc - Completo Inspetor Willoughby - Completo Invasor Zim - Completo Jonny Quest DVDrip - Completo Josie e as Gatinhas - Completo Josie e as Gatinhas no Espaco - Completo Karate Kid - Completo Leao da Montanha - Completo Legiao dos Super Herois - Primeira Tempo Maguila o Gorila - Completo Marsupilami - Completo Matracatrica e Fofoquinha - Completo Mega Man - Completo Mini Polegar e Yougui - Completo Mister Magoo - Completo Moby Dick - Completo Mortal Kombat - Defensores da Terra - Com..2.55 GB O Mascara - Completo 11.0 GB O Surfista Prateado - Completo 2.69 GB Os Apuros de Penelope - Completo 3.46 GB Os Caca Fantasmas - Completo 4.17 GB Os Flintstones - Primeira e Segunda Tempor..8.52 GB Os Impossiveis - Completo 1.70 GB Os Jetsons - Primeira Temporada Completa ..2.64 GB Os Jorges - Completo 670 MB Os jovens Titas - Teen Titas - Primeira e Seg..6.48 GB Os Muzzarelas - Completo 2.35 GB Os Super Globetrottles - Completo 2.17 GB Os Ursinhos Carinhosos - Completo 6.27 GB Os Verdadeiros Caca-Fantasma - Completo 2.51 GB Os Vingadores - Completo 1.78 GB Papa Leguas - Completo 1.76 GB Pernalonga e sua Turma - Completo 14.1 GB Peter Potamus - Completo 361 MB Pica Pau - Completo 4.24 GB Pink e Cerebro - Primeira Temporada Comp..4.26 GB Pirata do Espaco - Completo 5.96 GB Pole Position - Completo 2.12 GB Popeye - 215ep de 220 2.98 GB Putz a Coisa ta Feia - Primeira Temporada C..5.27 GB Sabados Secretos - Completo 6.12 GB Scooby Doo Cade Voce DVDRip - Completo 5.47 GB Shazzan - Completo 2.68 GB She-Ra - Completo S1 11.3 GB She-Ra - Completo S1 11.3 GB Shuriken School - Completo 4.53 GB Shuriken School - Completo 4.53 GB Space Goofs - Completo 4.62 GB Space Goofs - Completo 4.62 GB Spider-Man Classic - Completo 13.7 GB Spider-Man Classic - Completo 13.7 GB Spider-Man Unlimited - Completo 2.37 GB Spider-Man Unlimited - Completo 2.37 GB Super Amigos - Completo 5.02 GB Super Amigos - Completo 5.02 GB Super Mario Bros 3 - Completo 1.26 GB Super Shock - Completo 8.54 GB Super-Homem - Primeira Temporada Com..9.92 GB Superman 1941 - Completo 846 MB Swat Kats - Completo 4.50 GB Thundercats - Completo 21.7 GB Tico e Teco - Os Defensores da Lei - Compl..11.1 GB Tom Sem Freio - Completo 1.41 GB Transformers - Classico 3 08 GB Transformers Animated - 2007 - Completo 7.45 GB Transformers Beast Machines - Completo 2.80 GB Tres Espias Demais - Completo 20.0 GB Turbo Man - Completo 1.72 GB Vale dos Dinossauros - Completo 2.13 GB Wally Gator - Completo 793 MB Wolverine e os X-Men - Completo 4.82 GB X-Men Animated Series - Classico - Comple..9.61 GB X-Men Evolution - Completo 2.54 GB
^1 ^2 2 comment last on May 14, 2019 ━ submitted by nopopo

Lucifer.S04.1080p.WEB.x264-STRiFE[rartv]

^1 ^2 0 comments on May 10, 2019 ━ submitted by junoon

Captain Marvel 2019.HDCAM.x264.AC3-ETRG

^1 ^2 0 comments on May 09, 2019 ━ submitted by junoon

WWE 2019 05 07 Smackdown HINDI - Junoon

WWE 2019 05 07 Smackdown HINDI - Junoon General Format : MPEG-4 Format profile : Base Media Codec ID : isom (isom/iso2/avc1/mp41) File size : 621 MiB Duration : 1 h 19 min Video ID : 1 Format : AVC Format/Info : Advanced Video Codec Format profile : High@L3 Format settings : CABAC / 4 Ref Frames Format settings, CABAC : Yes Format settings, ReFrames : 4 frames Codec ID : avc1 Codec ID/Info : Advanced Video Coding Duration : 1 h 19 min Bit rate : 1 000 kb/s Width : 640 pixels Height : 360 pixels Display aspect ratio : 16:9 Frame rate mode : Variable Frame rate : 30.000 FPS Minimum frame rate : 9.931 FPS Maximum frame rate : 30.060 FPS Audio ID : 2 Format : AAC LC Format/Info : Advanced Audio Codec Low Complexity Codec ID : mp4a-40-2 Duration : 1 h 19 min Bit rate mode : Variable Bit rate : 64.3 kb/s Maximum bit rate : 128 kb/s Channel(s) : 2 channels [url=
https://ibb.co/C20ssSD][img]https://i.ibb.co/6BsJJqL/WWE-2019-05-07-Smackdown-HINDI-Junoon-mp4-snapshot-00-03-43-489.jpg[/img][/url]
^1 ^2 0 comments on May 09, 2019 ━ submitted by junoon

WWE 2019 05 07 Smackdown HINDI - Junoon

WWE 2019 05 07 Smackdown HINDI - Junoon General Format : MPEG-4 Format profile : Base Media Codec ID : isom (isom/iso2/avc1/mp41) File size : 621 MiB Duration : 1 h 19 min Video ID : 1 Format : AVC Format/Info : Advanced Video Codec Format profile : High@L3 Format settings : CABAC / 4 Ref Frames Format settings, CABAC : Yes Format settings, ReFrames : 4 frames Codec ID : avc1 Codec ID/Info : Advanced Video Coding Duration : 1 h 19 min Bit rate : 1 000 kb/s Width : 640 pixels Height : 360 pixels Display aspect ratio : 16:9 Frame rate mode : Variable Frame rate : 30.000 FPS Minimum frame rate : 9.931 FPS Maximum frame rate : 30.060 FPS Audio ID : 2 Format : AAC LC Format/Info : Advanced Audio Codec Low Complexity Codec ID : mp4a-40-2 Duration : 1 h 19 min Bit rate mode : Variable Bit rate : 64.3 kb/s Maximum bit rate : 128 kb/s Channel(s) : 2 channels [url=
https://ibb.co/C20ssSD][img]https://i.ibb.co/6BsJJqL/WWE-2019-05-07-Smackdown-HINDI-Junoon-mp4-snapshot-00-03-43-489.jpg[/img][/url]
^1 ^2 0 comments on May 09, 2019 ━ submitted by junoon

Love Death and Robots S01 1080p DLMux.DD5.1 x264

**General** - Format : Matroska - Format version : Version 4 / Version 2 - Overall bit rate mode : Variable - Overall bit rate : 7 532 kb/s - Encoded date : UTC 2019-03-15 08:38:39 - Writing application : mkvmerge v7.1.0 ('Good Love') 32bit built on Jul 27 2014 12:59:18 - Writing library : libebml v1.3.0 + libmatroska v1.4.1 **Video** - Format : AVC - Format/Info : Advanced Video Codec - Format profile : Main@L4 - Format settings : CABAC / 3 Ref Frames - Format settings, CABAC : Yes - Format settings, RefFrames : 3 frames - Codec ID : V_MPEG4/ISO/AVC - Bit rate mode : Variable - Bit rate : 6 698 kb/s - Nominal bit rate : 7 150 kb/s - Maximum bit rate : 10.7 Mb/s - Width : 1 920 pixels - Height : 1 080 pixels - Display aspect ratio : 16:9 - Frame rate mode : Constant - Frame rate : 24.000 FPS - Color space : YUV - Chroma subsampling : 4:2:0 - Bit depth : 8 bits - Scan type : Progressive - Bits/(Pixel*Frame) : 0.135 - Stream size : 826 MiB (89%) - Writing library : x264 core 148 r2715 7e75228 **Audio #1** - Format : AC-3 - Format/Info : Audio Coding 3 - Codec ID : A_AC3 - Bit rate mode : Constant - Bit rate : 384 kb/s - Channel(s) : 6 channels - Channel positions : Front: L C R, Side: L R, LFE - Sampling rate : 48.0 kHz - Frame rate : 31.250 FPS (1536 SPF) - Bit depth : 16 bits - Compression mode : Lossy - Stream size : 47.4 MiB (5%) - Language : Italian - Service kind : Complete Main **Audio #2** - Format : E-AC-3 - Format/Info : Enhanced Audio Coding 3 - Format profile : E-AC-3+Atmos / E-AC-3 - Codec ID : A_EAC3 - Bit rate mode : Constant - Bit rate : 448 kb/s - Channel(s) : 15 objects / 6 channels - Channel positions : 15 objects / Front: L C R, Side: L R, LFE - Sampling rate : 48.0 kHz - Frame rate : 187.500 FPS (256 SPF) - Compression mode : Lossy - Stream size : 55.2 MiB (6%) - Language : English - Service kind : Complete Main **Text ** - Format : UTF-8 - Codec ID : S_TEXT/UTF8 - Codec ID/Info : UTF-8 Plain Text - Bit rate : 0 b/s - Count of elements : 4 - Stream size : 117 Bytes (0%) - Title : Forced - Language : Italian, English, German, Spanish, French
^2 ^3 1 comment last on May 06, 2019 ━ submitted by b4rc0de

Game of Thrones Season 6 Censored

Game of Thrones Season 6 edited for sexual content
^1 ^2 0 comments on May 04, 2019 ━ submitted by teehee

Adobe Photoshop CC 2019 20.0.4.26077 RePack by KpoJIuK

Adobe Photoshop CC 2019 20.0.4.26077 RePack by KpoJIuK.
^1 ^2 0 comments on May 04, 2019 ━ submitted by autocad

Windows 10 Enterprise LTSC 2019 x86-x64 1809 RU by OVGorskiy 01.2019

Windows 10 Enterprise LTSC 2019 x86-x64 1809 RU by OVGorskiy 01.2019.
^1 ^2 0 comments on May 04, 2019 ━ submitted by autocad

Windows 7 MSDN

Windows 7 MSDN
^2 ^3 0 comments on May 03, 2019 ━ submitted by zsaw

WinRAR 5.71 Final RePack (& Portable) by KpoJIuK

WinRAR 5.71 Final RePack (& Portable) by KpoJIuK.
^1 ^2 0 comments on Apr 30, 2019 ━ submitted by autocad

One Punch Man S02 E03 1080p WEBRip x265 HEVC 10bit AAC.2.0

**General** >Format : Matroska >Format version : Version 4 / Version 2 >File size : 177 MiB >Duration : 23 min 51 s >Overall bit rate : 1 037 kb/s >Encoded date : UTC 2019-04-09 19:05:08 >Writing application : mkvmerge v31.0.0 ('Dolores In A Shoestand') 64-bit >Writing library : libebml v1.3.6 + libmatroska v1.4.9 >Writing frontend : StaxRip v2.0.0.1 **Video** >Format : HEVC >Format/Info : High Efficiency Video Coding >Format profile : Main 10@L4@Main >Codec ID : V_MPEGH/ISO/HEVC >Bit rate : 907 kb/s >Width : 1 920 pixels >Height : 1 080 pixels >Display aspect ratio : 16:9 >Frame rate mode : Constant >Frame rate : 23.976 (24000/1001) FPS >Color space : YUV >Chroma subsampling : 4:2:0 >Bit depth : 10 bits >Bits/(Pixel*Frame) : 0.018 >Stream size : 155 MiB (87%) **Audio** >Format : AAC >Format/Info : Advanced Audio Codec >Format profile : LC >Codec ID : A_AAC-2 >Bit rate : 128 kb/s >Channel(s) : 2 channels >Channel positions : Front: L R >Sampling rate : 44.1 kHz >Frame rate : 43.066 FPS (1024 SPF) >Compression mode : Lossy >Delay relative to video : 10 ms >Stream size : 21.8 MiB (12%) >Language : Japanese **Text** >Format : ASS >Codec ID : S_TEXT/ASS >Codec ID/Info : Advanced Sub Station Alpha >Bit rate : 167 b/s >Count of elements : 430 >Compression mode : Lossless >Stream size : 29.2 KiB (0%) >Title : English(US) >Language : English, Spanish, Russian
^1 ^2 0 comments on Apr 24, 2019 ━ submitted by b4rc0de

Death Note The Last Name 2006 (live action movie, part 2) DvDrip

**General** >Format : AVI >Format/Info : Audio Video Interleave >File size : 801 MiB >Duration : 2 h 20 min >Overall bit rate : 799 kb/s >Writing application : VirtualDubMod 1.5.10.2 (build 2540/release) >Writing library : VirtualDubMod build 2540/release **Video** >Format : MPEG-4 Visual >Format profile : Advanced Simple@L5 >Format settings : BVOP2 >Format settings, BVOP : 2 >Format settings, QPel : No >Format settings, GMC : No warppoints >Format settings, Matrix : Default (H.263) >Muxing mode : Packed bitstream >Codec ID : DX50 >Codec ID/Hint : DivX 5 >Duration : 2 h 20 min >Bit rate : 678 kb/s >Width : 580 pixels >Height : 320 pixels >Display aspect ratio : 16:9 >Frame rate : 23.976 (24000/1001) FPS >Color space : YUV >Chroma subsampling : 4:2:0 >Bit depth : 8 bits >Scan type : Progressive >Compression mode : Lossy >Bits/(Pixel*Frame) : 0.152 >Stream size : 680 MiB (85%) >Writing library : XviD 1.0.3 (UTC 2004-12-20) **Audio** >Format : MPEG Audio >Format version : Version 1 >Format profile : Layer 3 >Format settings : Joint stereo / MS Stereo >Codec ID : 55 >Codec ID/Hint : MP3 >Duration : 2 h 20 min >Bit rate mode : Constant >Bit rate : 112 kb/s >Channel(s) : 2 channels >Sampling rate : 44.1 kHz >Compression mode : Lossy >Stream size : 112 MiB (14%) >Alignment : Split accross interleaves >Interleave, duration : 42 ms (1.00 video frame) >Interleave, preload duration : 500 ms >Language : Japanese **Text** >Language: English
^1 ^2 0 comments on Apr 18, 2019 ━ submitted by b4rc0de

Death Note 2006 (live action movie, part 1) 1080p BluRay x264

**Video** >Format : AVC >Format/Info : Advanced Video Codec >Format profile : High@L4.1 >Format settings, CABAC : Yes >Format settings, ReFrames : 4 frames >Codec ID : V_MPEG4/ISO/AVC >Duration : 2h 7mn >Bit rate : 8 116 Kbps >Width : 1 920 pixels >Height : 1 080 pixels >Display aspect ratio : 16:9 >Frame rate mode : Constant >Frame rate : 23.976 (24000/1001) fps >Color space : YUV >Chroma subsampling : 4:2:0 >Bit depth : 8 bits >Scan type : Progressive >Bits/(Pixel*Frame) : 0.163 >Stream size : 7.20 GiB (79%) **Audio** >Format : AC-3 >Format/Info : Audio Coding 3 >Mode extension : CM (complete main) >Format settings, Endianness : Big >Codec ID : A_AC3 >Duration : 2h 7mn >Bit rate mode : Constant >Bit rate : 384 Kbps >Channel(s) : 2 channels >Channel positions : Front: L R >Sampling rate : 48.0 KHz >Frame rate : 31.250 fps (1536 spf) >Compression mode : Lossy >Stream size : 349 MiB (4%) >Languages : English, Japanese **Text** >Format : UTF-8 >Codec ID : S_TEXT/UTF8 >Codec ID/Info : UTF-8 Plain Text >Language : English
^1 ^2 0 comments on Apr 18, 2019 ━ submitted by b4rc0de

Our Planet 2019 S01 1080p WEB-DL x264

**General** >Format : Matroska >Format version : Version 4 / Version 2 >File size : 980 MiB >Overall bit rate : 2 770 kb/s >Encoded date : UTC 2019-04-09 10:13:25 >Writing application : mkvmerge v28.2.0 ('The Awakening') 64-bit >Writing library : libebml v1.3.6 + libmatroska v1.4.9 **Video** >Format : AVC >Format/Info : Advanced Video Codec >Format profile : High@L4.1 >Format settings : CABAC / 4 Ref Frames >Format settings, CABAC : Yes >Format settings, RefFrames : 4 frames >Codec ID : V_MPEG4/ISO/AVC >Bit rate : 2 512 kb/s >Width : 1 920 pixels >Height : 1 080 pixels >Display aspect ratio : 16:9 >Frame rate mode : Constant >Frame rate : 23.976 (24000/1001) FPS >Color space : YUV >Chroma subsampling : 4:2:0 >Bit depth : 8 bits >Scan type : Progressive >Bits/(Pixel*Frame) : 0.051 >Stream size : 889 MiB (91%) **Audio** >Format : AAC >Format/Info : Advanced Audio Codec >Format profile : HE-AAC / LC >Format settings : NBC >Codec ID : A_AAC-2 >Bit rate : 256 kb/s >Channel(s) : 6 channels >Channel(s)_Original : 18 channels >Channel positions : Front: 14, Side: C, Back: C, LFE= 2 >Sampling rate : 48.0 kHz / 24.0 kHz >Frame rate : 23.438 FPS (1024 SPF) >Compression mode : Lossy >Delay relative to video : 43 ms >Stream size : 90.6 MiB (9%) >Language : English **Text** >Format : UTF-8 >Codec ID : S_TEXT/UTF8 >Codec ID/Info : UTF-8 Plain Text >Bit rate : 51 b/s >Count of elements : 427 >Stream size : 18.4 KiB (0%) >Title : SDH >Language : English
^1 ^2 0 comments on Apr 18, 2019 ━ submitted by b4rc0de

One Punch Man S02 E02 1080p WEBRip x265 HEVC 10bit AAC.2.0

**General** >Format : Matroska >Format version : Version 4 / Version 2 >File size : 177 MiB >Duration : 23 min 51 s >Overall bit rate : 1 037 kb/s >Encoded date : UTC 2019-04-09 19:05:08 >Writing application : mkvmerge v31.0.0 ('Dolores In A Shoestand') 64-bit >Writing library : libebml v1.3.6 + libmatroska v1.4.9 >Writing frontend : StaxRip v2.0.0.1 **Video** >Format : HEVC >Format/Info : High Efficiency Video Coding >Format profile : Main 10@L4@Main >Codec ID : V_MPEGH/ISO/HEVC >Bit rate : 907 kb/s >Width : 1 920 pixels >Height : 1 080 pixels >Display aspect ratio : 16:9 >Frame rate mode : Constant >Frame rate : 23.976 (24000/1001) FPS >Color space : YUV >Chroma subsampling : 4:2:0 >Bit depth : 10 bits >Bits/(Pixel*Frame) : 0.018 >Stream size : 155 MiB (87%) **Audio** >Format : AAC >Format/Info : Advanced Audio Codec >Format profile : LC >Codec ID : A_AAC-2 >Bit rate : 128 kb/s >Channel(s) : 2 channels >Channel positions : Front: L R >Sampling rate : 44.1 kHz >Frame rate : 43.066 FPS (1024 SPF) >Compression mode : Lossy >Delay relative to video : 10 ms >Stream size : 21.8 MiB (12%) >Language : Japanese **Text** >Format : ASS >Codec ID : S_TEXT/ASS >Codec ID/Info : Advanced Sub Station Alpha >Bit rate : 167 b/s >Count of elements : 430 >Compression mode : Lossless >Stream size : 29.2 KiB (0%) >Title : English(US) >Language : English, Spanish, Russian
^1 ^2 0 comments on Apr 18, 2019 ━ submitted by b4rc0de

One Punch Man S02 E01 1080p WEBRip x265 HEVC 10bit AAC.2.0

**General** >Format : Matroska >Format version : Version 4 / Version 2 >File size : 177 MiB >Duration : 23 min 51 s >Overall bit rate : 1 037 kb/s >Encoded date : UTC 2019-04-09 19:05:08 >Writing application : mkvmerge v31.0.0 ('Dolores In A Shoestand') 64-bit >Writing library : libebml v1.3.6 + libmatroska v1.4.9 >Writing frontend : StaxRip v2.0.0.1 **Video** >Format : HEVC >Format/Info : High Efficiency Video Coding >Format profile : Main 10@L4@Main >Codec ID : V_MPEGH/ISO/HEVC >Bit rate : 907 kb/s >Width : 1 920 pixels >Height : 1 080 pixels >Display aspect ratio : 16:9 >Frame rate mode : Constant >Frame rate : 23.976 (24000/1001) FPS >Color space : YUV >Chroma subsampling : 4:2:0 >Bit depth : 10 bits >Bits/(Pixel*Frame) : 0.018 >Stream size : 155 MiB (87%) **Audio** >Format : AAC >Format/Info : Advanced Audio Codec >Format profile : LC >Codec ID : A_AAC-2 >Bit rate : 128 kb/s >Channel(s) : 2 channels >Channel positions : Front: L R >Sampling rate : 44.1 kHz >Frame rate : 43.066 FPS (1024 SPF) >Compression mode : Lossy >Delay relative to video : 10 ms >Stream size : 21.8 MiB (12%) >Language : Japanese **Text** >Format : ASS >Codec ID : S_TEXT/ASS >Codec ID/Info : Advanced Sub Station Alpha >Bit rate : 167 b/s >Count of elements : 430 >Compression mode : Lossless >Stream size : 29.2 KiB (0%) >Title : English(US) >Language : English, Spanish, Russian
^1 ^2 0 comments on Apr 18, 2019 ━ submitted by b4rc0de

O Definitivo Bau de Desenhos Parte 3

101 Dalmatas - Coletanea 2x2 Shinobuden 51 J. Figure 17 A Pantera Cor de Rosa e Amigos A. D. Police Adolescence of Utena Agent Aika R16 Ah Megami Sama Ah Megami Sama The Adventures of Mini Ai Yori Aoshi Ai Yori Aoshi Enishi Aika Aika Zero Air Gear Air Master Aishiteruze Baby Akane Iro ni Somaru Saka Akikan Alexander Senki Ali Purpose Cultural Cat Girl Nuku Nuku Alien 9 Amaenaideyo Amaenaideyo Katsu Amatsuki Amazing Nurse Nanako Ana The Animation Ana the Oriqination Angel Beats Angel Sanctuary Angelic Layer Antique Bakey Aqua Teen hunger Force Arakawa Under The Brigde Arakawa Under The Brigdex Bridge Arjuna As Aventuras de Babar Asatte no Houkou Asobi Ni Iku Yo Asu no Yoishi Ayakashi Ayashi no Ceres Azumanga Daioh B Gata H Hei B Tx Baby Loney Tunes Bakemonogari Bakugan Bakuman Bakuretsu Hunters Bakuretsu Tenshi Bamboo Blade Basilik Battle Programmer Shirase Beck Berserk Betterman Betty Atomica Birdy The Mighty Black Blood Brothers Black Cat Black Lagoon Bleach Blood Blue Dragon Blue Drop Blue Seed Blue Seed Omake Bokurano Boogiepop Phantom Brandy e o Senhor Bigode Bubblegum Crisis Tokyo 2040 Burst Angel Bus Gamer Busou Henkin Buzzer Beater Cacadores de Elfas Canaan Captain Harlock The Endless Odyssey Castores Pirados Chaos Head Chaves Animado Chiccha na Yukitsukai Sugar Chrno Crusade Chru-Bra Cosmo Warrior Zero Coyote Ragtime Crying Freeman Cyberchase Da Capo 1 e 2 Daphne in the Brillant Blue Darker Than Black Day Dream Dears Death Note Demon Lord Dante Devil May Cry Di-Gatas Defenders Digimon Data Squad Digimon Data Squad Divergence Eve DNA Don Dracula Dragonaut The Resonance Druaga no To the Aegis of Uruk Earth Girl Arjuma Eat Man 98 Edens Bowy Efeito Cinderella Elfen Lied Ergo Proxy Eureka Seven Fabrica de Risos do Mickey Fabulas da Disney Fate Stay Night Freakazoid Freedom Full Metal Panic Fuma No Kojiro-Yasha-hen Futakoi Futebol Animal Gad Guard Gakuen Heaven Garfield e Amigos Generator Rex Genocyber Gensoumaden Saiyuki Ghenma Wars Ghost Hound Ghost Hunt Giant Robo The Animation Goldenboy Gormiti O Retorno dos Senhores da Natureza Goshuushou-sama Ninomiya-kun Green Green Grenadier GTO Gun X Sword Gungrave Hack Roots Hanaukio Maid Hand Maid May Harukanaru Toki no Naka de Hachiyoushou Harvey O Advogado Hatenkou Yuugi Hellsing Hero 108 Hihi Puff Ami Yumi Historias de Fantasmas Honey and Clover 1 e 2 Hot Wheels Battle Force 5 Hunter x Hunter Ichigo 100 Ikkitosen Jigoku Shoujo Jubei Chan tThe Ninja Girl Juuni Kokuki Kanon Karas Krypto O Supercao Laboratorio de Dexter Lamune Lenda de Ellcia Lilo e stitch Lost Universe MAD Madlax Makai Senki Disgaea Mars The Terminator Martha Fala Meine Liebe Mickey e Donald Mike Lu e Og - Coletanea Mobile Suit Gundam 00 Mouse Mucha Lucha Mura Cryin Avenger NHK ni Youkoso Nightwalker O Acampamento de Lazlo O Fantastico Mundo de Bobby O Novo Pica-Pau O Rato Esponja Os Incriveis Espioes Otogizoushi Pato Donald e seus Sobrinhos Patrulha Estelar Peixonauta Pita Ten Planet Survival R. Durara Ragnarok RI Duck Dodges Riquinho Saikano Sailon Moon Classic Sakura Card Captors Sakura Wars Shaman Kings Shinzo Slayers Speed Grapher Stratos 4 Super Campeoes Sym Bionic Titan Taz-Mania Team Galaxy TexhnolyzE Tsukihime Twin Spica Vandread Wild Arms XXX Holic ZatchBell
^1 ^2 0 comments on Apr 17, 2019 ━ submitted by nopopo

O Definitivo Bau de Desenhos Parte 2

A Corrida Espacial - Coletanea A Familia Adams - Coletanea A Familia Dracula - Coletanea A Mulher Maravilha A Nova Escola do Imperador - la Temporad... 2.87 GB A Turma do Bairro - Coletanea 881 MB A Turma do Pato Bill - Completo A Vaca e o Frango - Coletanea Andy Panda - Coletanea Animaniacs - Completo As Aventuras do Pequeno Principe - Compl... As Meninas Super Poderosas Geracao Z - Po... As Meninas Superpoderosas - Completo - B... As Tartarugas Ninja - Coletanea As Terriveis Aventuras de Billy e mandy - Co... Bacamarte e Chumbinho - Coletanea Batfino - Coletanea Batman Animated Serie - Completo Batman do Futuro - Completo Batman e Robin o Garoto Prodigio Batman Gotham Knights - Coletanea Beavis And Butt-Head - Coletanea Ben 10 - Completo Ben 10 Forca Alienigena - Completo Bob Esponja - Completo Capitao Caverna - Coletanea Capitao Lento - Coletanea Capitao Planeta - Coletanea Careta e Mutreta - Coletanea Charlie Chan - Completo Comandos em Acao - Coletanea Comichao e Cocadinha - Completo Coragem o Cao Covarde - Completo Delvin o Motoqueiro - Coletanea Desenhos Biblicos - Completo Doug Funnie - Completo Duelo Xiaolin - Completo E o Lobo - Coletanea Estados Unidos de Archies - Completo Fantasminha Legal - Coletanea Fantomas - Coletanea FlapJack - Completo Fudencio - la Temporada Completa Futurama - Coletanea G. I. Joe Sigma 6 - Completo Garfield - Coletanea Godzilla - 1977 - Coletanea Godzilla - The Series - Coletanea Goober e os Cacadores de Fantasmas Happy Tree Frieds - Completo 2.72 GB He-Man E os Mestres do Universo - 2000 -C 508 GB He-Man e os Mestres do Universo - Origin Hey Arnold - Coletanea Homem de Ferro - A Nova Serie Animada Ilha dos Desafios - Completo Jambo e Ruviao - Coletanea Jeannie e Babu - Coletanea Jibber eiabber - Completo Joao Grandao - Coletanea Jonny Test - Completo Justice League Unlimited - Completo Laboratorio Submarino 2020 - Coletanea Liga dos Super Malvados - Completo Ligeirinho - Coletanea Lil Bush - Coletanea Lippy e Hardy - Coletanea Lord Dog - Longa 699 MB Luluzinha - Coletanea 2.73 GB Mae e Pai - Coletanea 163 MB Mansao Foster Para Amigos Imaginarios - C... 11.5 GB Mecanimais - Completo 3.67 GB Medabots - Completo 9.14 GB Mega Man NT Warrior - Completo 3.64 GB Megas XRL - Completo 3.72 GB Meu Amigo da Escola e um Macaco - Colet... 1.52 GB Meu Pequeno Poney - Coletanea 2.36 GB Mickey Mouse PeB - Completo 2.13 GB Migthor - Completo 3.27 GB Monster Rancher - Completo 1.70 GB Mosquete Mosquito e Moscardo - Coletanea 881 MB O Batman - Completo 4.57 GB O Coisa - Coletanea 2.38 GB O Inspetor - Coletanea 547 MB O Invencivel Homem de Ferro - Completo 988 MB O Pequeno Scooby Doo - Coletanea 1.91 GB O que ha de novo Scooby Doo - Completo 6.70 GB O Rei do Pedaço - Completo la Temporada 2.45 GB O Show de Scooby Doo e Bionicao - Compl... 5.10 GB O Show do Ze Colmeia - Completo 1.88 GB O Xodo da Vovo - Completo 372 MB Oggy e as Baratas - Completo 9.84 GB Oi Galera Eu Sou o Ze Colmeia - Longa 1002 MB Os Pinguins de Madagascar - Completo 4.25 GB Os Sete Monstrinhos - Completo 3.47 GB Os Simpsons 75.5 GB Os Smurfs - Coletanea 1.56 GB Os Ursinhos Gummi - Coletanea 1.17 GB Overman - Coletanea 24.8 MB Padrinhos Magicos - Completo 2.37 GB Padrinhos Magicos - Completo 2.37 GB Pepe Legal - Coletanea 246 MB Phineas e Ferb - Completo 4.76 GB Picolino - Coletanea 4.14 GB Pingu - Completo 1.09 GB Plic Ploc e Chuvisco - Coletanea 1.58 GB Pokemon Colecao Completa 118 GB Power Stone - Completo 4.40 GB Projeto Zeta - Completo 4.91 GB Quarteto Fantastico - Uma Lenda Comeca -... 6.42 GB Rabugento - Coletanea 459 MB Recruta Zero e Hagar o Terrivel 699 MB Sabrina - A Bruxinha Adolescente - Completo 711 MB Samurai Jack - Completo 8.90 GB Shurato - Completo 7.15 GB Silver Hawks - Coletanea 640 MB Snoopy - Coletanea 3.84 GB Sonic X - Coletanea 987 MB South Park - Complete Scene Collection 33.5 GB Speed Racer - A Nova Geracao - Completo 3.84 GB Speed Racer - Completo 12.1 GB Star Wars - The Clone Wars - Completo 8.05 GB Street Fighter Victor), - Completo 7.42 GB Super Galo - Coletanea 663 MB Tartaruga Touche - Coletanea 885 MB Tom elerly - Completo 8.30 GB Toro e Pancho - Coletanea 846 MB Turma da Monica - Coletanea 5.73 GB Tutubarao - Coletanea 1.43 GB Uma Familia da Pesada - Completo 14.2 GB Ursinho Pooh e Seus Amigos - Coletanea 10.4 GB Zé Bolha eiuca Bala - Coletanea 683 MB Zé Buscape - Coletanea 1.34 GB
^1 ^2 0 comments on Apr 17, 2019 ━ submitted by nopopo

Cubix (Ofihombre)

Original release: 21/05/2015 Cubix It's a game made by Ofihombre. It tries of that you have to tread on all the soils of the tower and to turn them into blue (similar that Q*bert) to be able to happen from level and avoid the obstacles. You needed a Windows computer with mouse and keyboard to download and to play. Controls: Left button: Left move Rigth button: Rigth move Up button: Jump
^1 ^2 0 comments on Apr 15, 2019 ━ submitted by ofihombre0

Game of Thrones S08E01 1080p WEB

Game of Thrones season 8 ep1 released April 14th 2019! Get it while it's hot! (make sure to use a VPN too)
^2 ^3 0 comments on Apr 15, 2019 ━ submitted by loligod

Abducted in Plain Sight 2017 1080p x264

**General** - Format : Matroska - Format version : Version 4 / Version 2 - File size : 1.65 GiB - Duration : 1 h 30 min - Overall bit rate : 2 608 kb/s - Encoded date : UTC 2019-01-16T11:51:42Z - Writing application : HandBrake 1.0.7 2017040900 - Writing library : Lavf57.7.2 **Video** - Format : AVC - Format/Info : Advanced Video Codec - Format profile : Main@L4 - Format settings : CABAC / 4 Ref Frames - Format settings, CABAC : Yes - Format settings, RefFrames : 4 frames - Codec ID : V_MPEG4/ISO/AVC - Duration : 1 h 30 min - Bit rate : 2 222 kb/s - Width : 1 920 pixels - Height : 1 080 pixels - Display aspect ratio : 16:9 - Frame rate mode : Constant - Frame rate : 23.976 (24000/1001) FPS - Color space : YUV - Chroma subsampling : 4:2:0 - Bit depth : 8 bits - Scan type : Progressive - Bits/(Pixel*Frame) : 0.045 - Stream size : 1.37 GiB (83%) - Writing library : x264 core 148 r2708 86b7198 - Color range : Limited - Color primaries : BT.709 - Transfer characteristics : BT.709 - Matrix coefficients : BT.709 **Audio** - Format : AC-3 - Format/Info : Audio Coding 3 - Codec ID : A_AC3 - Duration : 1 h 30 min - Bit rate mode : Constant - Bit rate : 384 kb/s - Channel(s) : 6 channels - Channel positions : Front: L C R, Side: L R, LFE - Sampling rate : 48.0 kHz - Frame rate : 31.250 FPS (1536 SPF) - Bit depth : 16 bits - Compression mode : Lossy - Delay relative to video : -5 ms - Stream size : 248 MiB (15%) - Title : Surround - Language : English - Service kind : Complete Main - Default : Yes - Forced : No **Text** - Format : ASS - Codec ID : S_TEXT/ASS - Codec ID/Info : Advanced Sub Station Alpha - Compression mode : Lossless - Language : Swedish - Default : Yes - Forced : Yes
^1 ^2 1 comment last on Apr 15, 2019 ━ submitted by b4rc0de
Loading...

Main ZeroNet news How did you find ZeroNet?

Follow in NewsfeedFollowing

Title

Body
^? ^0 username posted added
Please sign innew comment
Sign in as...

(optional image in comment)

Submit comment
You are running out of your allowed space, please contact the site's admin at unknown to raise your limit.
user_nameadded ^1 ^2
Reply
Body
This page is a preview of ZeroNet. Start your own ZeroNet for complete experience. Learn More